Gerald Finley, London Philharmonic Orchestra, Vladimir Jurowski – Wagner: Die Meistersinger von Nurnberg – Glyndebourne Festival Opera (2012) 2BD, Blu-ray 1080i AVC DTS-HD MA 5.1

Сomposer: Richard Wagner (1813-1883)
Title: Wagner: Die Meistersinger von Nürnberg
Release Date: 2012
Recorded Date: Glyndebourne, Lewes, July 2011.
Genre: Classical
Director: David McVicar
Conductor: Vladimir Jurowski
Artist: Marco Jentzsch (Walther von Stolzing), Anna Gabler (Eva), Michaela Selinger (Magdalene), Topi Lehtipuu (David), Alastair Miles (Veit Pogner), Johannes Martin Kränzle (Sixtus Beckmesser), Gerald Finley (Hans Sachs), Colin Judson (Kunz Vogelgesang), The Glyndebourne Chorus, London Philharmonic Orchestra

Production/Label: Opus Arte
Duration: 02:32:16+02:09:05
Quality: Blu-ray
Container: BDMV
Video codec: AVC
Audio codec: DTS, PCM
Video: MPEG-4 AVC Video / 30675 kbps / 1080i / 29,970 fps / 16:9 / High Profile 4.1
Audio#1: German / LPCM Audio / 2.0 / 48 kHz / 2304 kbps / 24-bit
Audio#2: German / DTS-HD Master Audio / 5.1 / 48 kHz / 3739 kbps / 24-bit (DTS Core: 5.1 / 48 kHz / 1509 kbps / 24-bit)
Subtitles: English, French, German
Size: 41.5 GB + 40.5 GB

English-speaking audiences have always found Die Meistersinger to be a life-enhancing celebration of wisdom, art and song. So it proves in David McVicar’s production – the first at Glyndebourne – which is updated to the early-19th century of Wagner’s childhood. At the centre of a true ensemble cast is Gerald Finley, a ‘gleamingly sung’, ’eminently believable’ Sachs (The Independent on Sunday), supported by the dynamic conducting of Vladimir Jurowski which, like McVicar’s production, uses Glyndebourne’s special intimacy to bring sharp focus to bear on the subtlety of Wagner’s musical and dramatic counterpoint.

pic pic pic pic
pic pic pic pic
pic pic pic pic
pic pic pic pic

DISC INFO:

Disc Title:     DIE_MEISTERSINGER_D1
Disc Size:      44 563 430 482 bytes
Protection:     AACS
BD-Java:        No
BDInfo:         0.5.8

PLAYLIST REPORT:

Name:                   00002.MPLS
Length:                 2:32:16.193 (h:m:s.ms)
Size:                   44 342 599 680 bytes
Total Bitrate:          38,83 Mbps

VIDEO:

Codec                   Bitrate             Description
-----                   -------             -----------
MPEG-4 AVC Video        30675 kbps          1080i / 29,970 fps / 16:9 / High Profile 4.1

AUDIO:

Codec                           Language        Bitrate         Description
-----                           --------        -------         -----------
DTS-HD Master Audio             German          3739 kbps       5.1 / 48 kHz / 3739 kbps / 24-bit (DTS Core: 5.1 / 48 kHz / 1509 kbps / 24-bit)
LPCM Audio                      German          2304 kbps       2.0 / 48 kHz / 2304 kbps / 24-bit

SUBTITLES:

Codec                           Language        Bitrate         Description
-----                           --------        -------         -----------
Presentation Graphics           English         31,463 kbps
Presentation Graphics           French          31,023 kbps
Presentation Graphics           German          34,393 kbps

FILES:

Name            Time In         Length          Size            Total Bitrate
----            -------         ------          ----            -------------
00006.M2TS      0:00:00.000     2:32:07.151     44 308 187 136  38 836
00007.M2TS      2:32:07.151     0:00:09.042     34 412 544      30 446

DISC INFO:

Disc Title:     DIE_MEISTERSINGER_D2
Disc Size:      43 514 457 970 bytes
Protection:     AACS
BD-Java:        No
BDInfo:         0.5.8

PLAYLIST REPORT:

Name:                   00002.MPLS
Length:                 2:09:05.838 (h:m:s.ms)
Size:                   38 371 411 968 bytes
Total Bitrate:          39,63 Mbps

VIDEO:

Codec                   Bitrate             Description
-----                   -------             -----------
MPEG-4 AVC Video        31434 kbps          1080i / 29,970 fps / 16:9 / High Profile 4.1

AUDIO:

Codec                           Language        Bitrate         Description
-----                           --------        -------         -----------
DTS-HD Master Audio             German          3784 kbps       5.1 / 48 kHz / 3784 kbps / 24-bit (DTS Core: 5.1 / 48 kHz / 1509 kbps / 24-bit)
LPCM Audio                      German          2304 kbps       2.0 / 48 kHz / 2304 kbps / 24-bit

SUBTITLES:

Codec                           Language        Bitrate         Description
-----                           --------        -------         -----------
Presentation Graphics           English         25,389 kbps
Presentation Graphics           French          24,839 kbps
Presentation Graphics           German          26,490 kbps

FILES:

Name            Time In         Length          Size            Total Bitrate
----            -------         ------          ----            -------------
00008.M2TS      0:00:00.000     2:08:48.754     38 353 766 400  39 700
00000.M2TS      2:08:48.754     0:00:09.075     7 507 968       6 618
00001.M2TS      2:08:57.830     0:00:08.008     10 137 600      10 127

Disc 1:

http://nitroflare.com/view/C53BD032608412F/DIE_MEISTERSINGER_D1.part01.rar
http://nitroflare.com/view/4E4E4F7EEA04E7A/DIE_MEISTERSINGER_D1.part02.rar
http://nitroflare.com/view/74B7432E5B51481/DIE_MEISTERSINGER_D1.part03.rar
http://nitroflare.com/view/4D83BCE7A7A662C/DIE_MEISTERSINGER_D1.part04.rar
http://nitroflare.com/view/ECF32C2656EEFDC/DIE_MEISTERSINGER_D1.part05.rar
http://nitroflare.com/view/9D9CC5CCECA1592/DIE_MEISTERSINGER_D1.part06.rar
http://nitroflare.com/view/DC3989EBFD76206/DIE_MEISTERSINGER_D1.part07.rar
http://nitroflare.com/view/FD1AD8C90C4946F/DIE_MEISTERSINGER_D1.part08.rar
http://nitroflare.com/view/FECEAAA8FD6FB34/DIE_MEISTERSINGER_D1.part09.rar
http://nitroflare.com/view/A9BAFB74D8E8438/DIE_MEISTERSINGER_D1.part10.rar
http://nitroflare.com/view/082AF801093B061/DIE_MEISTERSINGER_D1.part11.rar
http://nitroflare.com/view/6C616CDC653DCC5/DIE_MEISTERSINGER_D1.part12.rar
http://nitroflare.com/view/EAB0D0C4A8004B2/DIE_MEISTERSINGER_D1.part13.rar
http://nitroflare.com/view/4A97AE44597D230/DIE_MEISTERSINGER_D1.part14.rar
http://nitroflare.com/view/31212D630C0C2A7/DIE_MEISTERSINGER_D1.part15.rar
http://nitroflare.com/view/C095C1090DA7038/DIE_MEISTERSINGER_D1.part16.rar
http://nitroflare.com/view/CB5DC7457D04787/DIE_MEISTERSINGER_D1.part17.rar
http://nitroflare.com/view/BC99C75CF80E026/DIE_MEISTERSINGER_D1.part18.rar
http://nitroflare.com/view/838F31900B7DFF2/DIE_MEISTERSINGER_D1.part19.rar
http://nitroflare.com/view/C650B13F972054B/DIE_MEISTERSINGER_D1.part20.rar
http://nitroflare.com/view/9F51DE2C09B8278/DIE_MEISTERSINGER_D1.part21.rar
http://nitroflare.com/view/EEA37B51D644EE3/DIE_MEISTERSINGER_D1.part22.rar
http://nitroflare.com/view/5FFAF556B82657C/DIE_MEISTERSINGER_D1.part23.rar
http://nitroflare.com/view/6AC341029F277FF/DIE_MEISTERSINGER_D1.part24.rar
http://nitroflare.com/view/20E856F8D30AA10/DIE_MEISTERSINGER_D1.part25.rar
http://nitroflare.com/view/4BCBD3F33346BCA/DIE_MEISTERSINGER_D1.part26.rar
http://nitroflare.com/view/28EC7479EDE33BA/DIE_MEISTERSINGER_D1.part27.rar
http://nitroflare.com/view/0E55A5C0C596C89/DIE_MEISTERSINGER_D1.part28.rar
http://nitroflare.com/view/D67D62EB0C33F4E/DIE_MEISTERSINGER_D1.part29.rar

Recovery Volumes
http://nitroflare.com/view/545D31322915498/DIE_MEISTERSINGER_D1.part01.rev
http://nitroflare.com/view/E4A719C27D4B69E/DIE_MEISTERSINGER_D1.part02.rev
http://nitroflare.com/view/D0A1B066CD4FAA8/DIE_MEISTERSINGER_D1.part03.rev

Disc 2:

http://nitroflare.com/view/67541CA3F7ECFE6/DIE_MEISTERSINGER_D2.part01.rar
http://nitroflare.com/view/2F4131A8C3227F8/DIE_MEISTERSINGER_D2.part02.rar
http://nitroflare.com/view/D83C25834844F43/DIE_MEISTERSINGER_D2.part03.rar
http://nitroflare.com/view/BEA5419F4B3604F/DIE_MEISTERSINGER_D2.part04.rar
http://nitroflare.com/view/26E8F6142E084DA/DIE_MEISTERSINGER_D2.part05.rar
http://nitroflare.com/view/B20EE8D0A8A2566/DIE_MEISTERSINGER_D2.part06.rar
http://nitroflare.com/view/318B576A9508244/DIE_MEISTERSINGER_D2.part07.rar
http://nitroflare.com/view/45CC1A841DA7751/DIE_MEISTERSINGER_D2.part08.rar
http://nitroflare.com/view/763CA82F20537AC/DIE_MEISTERSINGER_D2.part09.rar
http://nitroflare.com/view/611A94BB8F44042/DIE_MEISTERSINGER_D2.part10.rar
http://nitroflare.com/view/C85174BB6A94DAE/DIE_MEISTERSINGER_D2.part11.rar
http://nitroflare.com/view/9865A4AC23A6349/DIE_MEISTERSINGER_D2.part12.rar
http://nitroflare.com/view/455359FB8B95B07/DIE_MEISTERSINGER_D2.part13.rar
http://nitroflare.com/view/B60E3FFF272269A/DIE_MEISTERSINGER_D2.part14.rar
http://nitroflare.com/view/B2052EA50F1D270/DIE_MEISTERSINGER_D2.part15.rar
http://nitroflare.com/view/96CF5CB2CE7E132/DIE_MEISTERSINGER_D2.part16.rar
http://nitroflare.com/view/3D63E99D3AC6C1D/DIE_MEISTERSINGER_D2.part17.rar
http://nitroflare.com/view/C635D5BF2F3BB08/DIE_MEISTERSINGER_D2.part18.rar
http://nitroflare.com/view/5158E5629BFC198/DIE_MEISTERSINGER_D2.part19.rar
http://nitroflare.com/view/D612D2C236A1B09/DIE_MEISTERSINGER_D2.part20.rar
http://nitroflare.com/view/274E496919C7EF6/DIE_MEISTERSINGER_D2.part21.rar
http://nitroflare.com/view/4BC99300CE59B1D/DIE_MEISTERSINGER_D2.part22.rar
http://nitroflare.com/view/9F8E50854CE6EAA/DIE_MEISTERSINGER_D2.part23.rar
http://nitroflare.com/view/B3B528014EC0432/DIE_MEISTERSINGER_D2.part24.rar
http://nitroflare.com/view/8E565B38D838FBB/DIE_MEISTERSINGER_D2.part25.rar
http://nitroflare.com/view/3B38B0DBE10E088/DIE_MEISTERSINGER_D2.part26.rar
http://nitroflare.com/view/356EB8854C3B213/DIE_MEISTERSINGER_D2.part27.rar
http://nitroflare.com/view/72E3F93EDAF3951/DIE_MEISTERSINGER_D2.part28.rar

Recovery Volumes
http://nitroflare.com/view/A352EDEA35CF99F/DIE_MEISTERSINGER_D2.part01.rev
http://nitroflare.com/view/2460FB5E7589641/DIE_MEISTERSINGER_D2.part02.rev
http://nitroflare.com/view/16A6F1BFB7BE255/DIE_MEISTERSINGER_D2.part03.rev